Les Bannis de Faerun Index du Forum
Les Bannis de Faerun Index du ForumFAQRechercherS’enregistrerConnexion

Cat Power The Greatest US Original Vinyl Rip In 24 Bit 96 K

 
Poster un nouveau sujet   Répondre au sujet    Les Bannis de Faerun Index du Forum -> Recrutement et Presentations -> Presentation
Sujet précédent :: Sujet suivant  
Auteur Message
benomak


Hors ligne

Inscrit le: 07 Avr 2016
Messages: 118
Localisation: Napoli

MessagePosté le: 03.05.16 16:30    Sujet du message: Cat Power The Greatest US Original Vinyl Rip In 24 Bit 96 K Répondre en citant




Cat Power The Greatest US Original Vinyl Rip In 24 Bit 96 Khz CD > bit.ly/1rtelXI







Cat Power The Greatest US Original Vinyl Rip In 24 Bit 96 Khz CD


ced5a5f5e9
I believe they would rather be safe in knowing they're protected by the patents surrounding AAC than togamble getting sued for possible infringement for Opus, Ogg Vorbis, and etc. We also repeat, if you know the analytical expression then the number of samples must be equal to the number of unknown parameters of the analytical expression. Seems a shame they didn't do it. web breeds know-it-all eejits like flies, get some skills, make some music and then talk about it. A vinyl rip at 96/24 sounds very much the same as a 96/16 rip.

lala paying more for the same songs just because its has more bits is ridiculous, isnt it? i mean its not like they had more work to do, in fact they had to do less, no need to downsample & Peter Kirn B.C.: I agree on ABX testing, and actually, that's a good answer to my query about methodology. Robinson’s Quango C2 He Thought Of Cars C3 It Could Be You C4 Ernold Same D5 Globe Alone D6 Dan Abnormal D7 Entertain Me D8 Yuko & Hiro Credits Backing Vocals – Angela Murrell (tracks: A7), Teresa Jane Davis* (tracks: A7) Bass Guitar – Alex James (2) Cello – Ivan McCermoy Design – Stylorouge Drums – Dave Rowntree Electric Guitar, Acoustic Guitar, Banjo, Backing Vocals, Saxophone [Occasional] – Graham Coxon Engineer – John Smith (4) Engineer [Assistant] – Julia Gardner, Tom Girling Horns – Kick Horns, The Narrator – Right On Ken Livingstone, The* (tracks: B4) Photography By [All Other] – Pictor International Photography By [Bandshot] – Nels Israelson Photography By [Covershot] – Tom King (12) Producer – Stephen Street Saxophone – Simon Clarke (2), Tim Sanders Strings – Duke Strings Quartet, The* Trombone – Neil Sidwell Trumpet – Roddy Lorimer Viola – John Metcalfe Violin – Louisa Fuller, Rick Koster Vocals [Additional] – Cathy Gillat (tracks: B8) Written-By – Albarn*NotesInner sleeve with lyrics.180 GramIncludes Download CodeGatefoldBarcode and Other Identifiers Barcode: 5099962484510foobar2000 1.2.6 / Dynamic Range Meter 1.1.1log date: 2013-08-18 09:27:27——————————————————————————–Analyzed: Blur / The Great Escape (Vinyl)——————————————————————————–DR Peak RMS Duration Track——————————————————————————–DR10 -2.61 dB -14.95 dB 3:11 01-StereotypesDR11 -2.04 dB -15.17 dB 3:56 02-Country HouseDR10 -3.21 dB -16.19 dB 4:50 03-Best DaysDR11 -1.30 dB -13.89 dB 3:32 04-Charmless ManDR11 -2.10 dB -16.06 dB 4:17 05-Fade AwayDR11 -1.93 dB -15.70 dB 4:01 06-Top ManDR11 -2.18 dB -16.47 dB 4:01 07-The UniversalDR11 -1.82 dB -14.79 dB 4:01 08-Mr. Good idea is to never generalize. (Full disclosure: I'm a child of the 80s walkman era, and a headphone listener, rather than a loudspeaker-in-room type. The DAC and reconstruction filters job is to make these jagged lines more sinusoidal, so that it will be like the music that was recorded, which is also sinusoidal. Responder maty dice: marzo 6, 2012 a las 3:45 pm cco.caltech.edu Theres Life Above 20 Kilohertz! A Survey of Musical Instrument Spectra to 102.4 KHz James Boyk, 1992, 1997 Abstract At least one member of each instrument family (strings, woodwinds, brass and percussion) produces energy to 40 kHz or above, and the spectra of some instruments reach this works measurement limit of 102.4 kHz. 23rd August 2013 Post Blur - The Great Escape (1995, 2012) (180g Remastered Reissue) Blur“The Great Escape”1995, 2012Food ‎– FOODLPX14, Parlophone ‎– 5099962484510180g Remaster Reissue VinylA1 Stereotypes A2 Counntry House A3 Best Days B1 Charmless Man B2 Fade Away B3 Top Man B4 The Universal C1 Mr.

[FULL] dangdut instrument rhoma iramaAmar Bangla Word Software Free Download | added by usersVTC MICROSOFT PROJECT 2003 TUTORIALSboys be next season rar-addsjin_online_auto_loot_bot-addsaplikasi kamus hp bahasa jawa jar.rarJulia Morse Playboy's Sexy Wives-addsdanielle maye boy girlDoneex Xcell Compiler 2 0 Incl Crack Zip hitfree ebook beautiful chaos.rar


Revenir en haut
Publicité






MessagePosté le: 03.05.16 16:30    Sujet du message: Publicité

PublicitéSupprimer les publicités ?
Revenir en haut
Montrer les messages depuis:   
Poster un nouveau sujet   Répondre au sujet    Les Bannis de Faerun Index du Forum -> Recrutement et Presentations -> Presentation Toutes les heures sont au format GMT + 2 Heures
Page 1 sur 1

 
Sauter vers:  

Index | Panneau d’administration | créer forum gratuit | Forum gratuit d’entraide | Annuaire des forums gratuits | Signaler une violation | Conditions générales d'utilisation
darkages Template © larme d'ange
Powered by phpBB © 2001, 2005 phpBB Group
Traduction par : phpBB-fr.com